<?xml version="1.0" standalone="no"?>
<!DOCTYPE svg PUBLIC "-//W3C//DTD SVG 1.1//EN" "http://www.w3.org/Graphics/SVG/1.1/DTD/svg11.dtd" >
<svg xmlns="http://www.w3.org/2000/svg">
<metadata></metadata>
<defs>
<font id="titillium_weblight" horiz-adv-x="1146" >
<font-face units-per-em="2048" ascent="1638" descent="-410" />
<missing-glyph horiz-adv-x="450" />
<glyph horiz-adv-x="2048" />
<glyph horiz-adv-x="2048" />
<glyph unicode="&#xd;" horiz-adv-x="681" />
<glyph unicode=" "  horiz-adv-x="450" />
<glyph unicode="&#x09;" horiz-adv-x="450" />
<glyph unicode="&#xa0;" horiz-adv-x="450" />
<glyph unicode="!" horiz-adv-x="489" d="M178 0v205h135v-205h-135zM180 1423h129l-8 -966h-115z" />
<glyph unicode="&#x22;" horiz-adv-x="745" d="M141 1423h127l-8 -446h-110zM477 1423h127l-8 -446h-113z" />
<glyph unicode="#" d="M53 369v106h234v412h-234v106h234v373h114v-373h342v373h115v-373h234v-106h-234v-412h234v-106h-234v-369h-115v369h-342v-369h-114v369h-234zM401 475h342v412h-342v-412z" />
<glyph unicode="$" d="M147 1018q0 354 428 354q35 0 56 -2l33 258h92l-35 -264l252 -29l-8 -104q-139 16 -258 26l-66 -514q195 -41 279 -113.5t84 -234.5q0 -217 -108 -314t-316 -97h-35l-31 -236q-92 6 -92 14l29 228l-293 30l14 105q158 -20 293 -29l72 549q-104 20 -169 44t-118 65 q-102 76 -103 264zM270 1026q0 -129 60.5 -180t220.5 -84l65 502h-32q-314 0 -314 -238zM559 92h16q305 0 306 273q0 133 -56.5 182t-197.5 80z" />
<glyph unicode="%" d="M66 1094q0 278 219 278t219 -280q0 -143 -58.5 -215t-161 -72t-160.5 71.5t-58 217.5zM170 1094q0 -199 115 -199q63 0 89.5 48t26.5 147.5t-26.5 145.5t-89 46t-89 -46t-26.5 -142zM332 -6l405 1390l86 -26l-405 -1389zM643 268q0 279 220 279t220 -281 q0 -143 -59 -214.5t-161.5 -71.5t-161 71.5t-58.5 216.5zM748 268q0 -199 115.5 -198.5t115.5 196.5q0 98 -26.5 144.5t-89 46.5t-89 -45.5t-26.5 -143.5z" />
<glyph unicode="&#x26;" horiz-adv-x="1402" d="M90 401.5q0 198.5 75 287.5t249 142q-70 80 -91.5 142.5t-21.5 159.5q0 135 89 216t255 81t251 -81t85 -224.5t-73.5 -226.5t-250.5 -157l336 -333q20 53 40 161.5t24 188.5l121 -2q-27 -266 -93 -428l273 -260l-76 -84l-256 243q-137 -248 -444 -247q-268 0 -380 111.5 t-112 310zM213 414q0 -322 362 -322q260 0 365 211l-453 449q-152 -43 -213 -115t-61 -223zM424 1116q0 -141 92 -233l64 -66q156 61 216 124t60 177q0 205 -216 205t-216 -207z" />
<glyph unicode="'" horiz-adv-x="409" d="M141 1423h129l-12 -446h-111z" />
<glyph unicode="(" horiz-adv-x="516" d="M111 581.5q0 155.5 21.5 295t51.5 249.5q59 225 111 357l22 53h119q-70 -186 -132 -465.5t-62 -453t49 -391.5t98 -349l47 -133h-119q-23 49 -57.5 135t-91.5 316.5t-57 386z" />
<glyph unicode=")" horiz-adv-x="516" d="M82 -256q72 176 133 438t61 435.5t-48 402.5t-97 373l-49 143h119q23 -55 57.5 -148.5t92 -337t57.5 -434t-52.5 -408.5t-103.5 -341l-51 -123h-119z" />
<glyph unicode="*" horiz-adv-x="858" d="M119 938l223 162l-221 162l55 73l221 -161l84 260l88 -29l-84 -262h271v-90h-275l84 -260l-86 -27l-86 262l-221 -162z" />
<glyph unicode="+" d="M117 457v114h395v412h117v-412h401v-114h-401v-416h-117v416h-395z" />
<glyph unicode="," horiz-adv-x="436" d="M78 -252l90 455h137l-125 -455h-102z" />
<glyph unicode="-" horiz-adv-x="911" d="M145 510v115h623v-115h-623z" />
<glyph unicode="." horiz-adv-x="421" d="M143 0v207h136v-207h-136z" />
<glyph unicode="/" horiz-adv-x="815" d="M66 23l573 1423l111 -43l-572 -1421z" />
<glyph unicode="0" d="M88 651q0 276 59.5 438t161 222.5t243.5 60.5t228 -33.5t150 -113.5q127 -156 127 -550t-122 -544.5t-363.5 -150.5t-362.5 148t-121 523zM219 649q0 -317 86 -436t268 -119q119 0 193 45q160 98 160 512q0 451 -154 557q-74 51 -200 51.5t-199 -49.5 q-154 -104 -154 -561z" />
<glyph unicode="1" d="M236 1069l426 283h118v-1352h-125v1212l-360 -241z" />
<glyph unicode="2" d="M143 0v106l422 447q102 109 148.5 163t84.5 132t38 158q0 137 -77 194t-237 57q-135 0 -301 -36l-55 -13l-10 109q193 55 396.5 55t309 -85t105.5 -271q0 -141 -63.5 -245.5t-213.5 -254.5l-393 -405h709v-111h-863z" />
<glyph unicode="3" d="M131 33l12 106q219 -45 420 -45q313 0 314 281q0 262 -297 276h-275v111h273q92 0 178 71.5t86 194.5t-66.5 177.5t-228.5 54.5t-330 -33l-51 -10l-12 104q193 51 408.5 51t313 -82t97.5 -264q0 -203 -189 -297l-24 -12q125 -39 186.5 -108.5t61.5 -227.5 q0 -203 -105.5 -302t-329.5 -99q-193 0 -380 40z" />
<glyph unicode="4" d="M82 274v99l397 979h139l-399 -965h539v432h127v-432h182v-113h-182v-274h-127v274h-676z" />
<glyph unicode="5" d="M135 39l17 104q231 -47 399 -47t257 90t89 253t-82 229.5t-229 66.5q-78 0 -162 -23.5t-129 -47.5l-47 -23l-94 16l39 695h776v-117h-670l-37 -477q164 90 336 90q430 0 430 -397q0 -229 -118.5 -348t-331.5 -119q-174 0 -377 41z" />
<glyph unicode="6" d="M111 684q0 352 136 520t382 168q139 0 309 -24l53 -7l-12 -104q-178 20 -357.5 20t-279.5 -130t-100 -373l53 20q174 66 305 66q451 0 451 -414q0 -213 -121 -329.5t-346 -116.5q-473 0 -473 704zM240 639q6 -545 344 -545q164 0 250 85t86 243q0 305 -328 305 q-74 0 -162 -21.5t-139 -43.5z" />
<glyph unicode="7" d="M162 1237v115h833v-181l-530 -1191l-121 40l522 1164v53h-704z" />
<glyph unicode="8" d="M66 344q0 150 61 225.5t188 139.5q-117 53 -172 123.5t-55 195.5q0 172 127 258t354.5 86t357.5 -87t130 -259q0 -127 -57.5 -197.5t-188.5 -119.5q131 -49 198.5 -126t67.5 -216q0 -387 -508 -387q-225 0 -364 85t-139 279zM203 362q-1 -266 366 -266q176 0 275.5 62.5 t99.5 202t-68.5 195.5t-201.5 91h-225q-123 -33 -184.5 -98.5t-61.5 -186.5zM223 1016q0 -102 54.5 -160.5t171.5 -97.5h225q125 35 186.5 95.5t61.5 160.5q0 244 -349.5 243.5t-349.5 -241.5z" />
<glyph unicode="9" d="M90 924q0 205 126 326.5t337 121.5q244 0 362.5 -185.5t118.5 -539.5t-133 -510.5t-395 -156.5q-154 0 -309 24l-54 8l13 105q178 -23 364 -23q379 0 383 504l-59 -20q-186 -61 -316 -62q-438 0 -438 408zM221 924q1 -295 316 -295q66 0 157.5 20.5t151.5 40.5l59 21 q-10 547 -352 546q-154 0 -243 -90t-89 -243z" />
<glyph unicode=":" horiz-adv-x="423" d="M143 0v207h136v-207h-136zM143 676v209h136v-209h-136z" />
<glyph unicode=";" horiz-adv-x="493" d="M109 -252l88 455h141l-127 -455h-102zM188 676v209h136v-209h-136z" />
<glyph unicode="&#x3c;" d="M121 459v110l860 426v-129l-735 -350l735 -356v-131z" />
<glyph unicode="=" d="M133 272v115h879v-115h-879zM133 639v115h879v-115h-879z" />
<glyph unicode="&#x3e;" d="M164 29v131l735 356l-735 350v129l860 -426v-110z" />
<glyph unicode="?" horiz-adv-x="919" d="M78 1384q217 59 342 60q207 0 309 -77t102 -251q0 -129 -36.5 -197.5t-147 -162.5t-156 -151.5t-45.5 -127.5v-74h-106q-18 51 -18 118t50 132.5t157.5 158.5t142.5 148.5t35 162t-72 157.5t-225 51q-102 0 -263 -37l-57 -14zM324 2v205h135v-205h-135z" />
<glyph unicode="@" horiz-adv-x="2000" d="M110.5 511q0.5 521 230.5 743.5t690 222.5t667 -208t207 -644v-31q0 -453 -136 -553q-49 -37 -96 -47t-110.5 -10t-108.5 13t-70 32q-47 39 -61 82q-84 -49 -191.5 -87t-171 -38t-106.5 8t-93 38.5t-85 86.5q-78 125 -78 391t93 397t327 131q100 0 211 -41l39 -14v35h123 v-400q0 -367 26 -446q8 -29 28.5 -52.5t46.5 -27.5t70 -4t72.5 7t59 35t47.5 81q37 131 37 383v33q0 391 -172 566t-577.5 175t-598 -194.5t-192.5 -649t185 -641t609 -186.5l293 20l6 -110q-197 -20 -299 -21q-238 0 -401.5 45t-284.5 152q-236 207 -235.5 728zM721 498 q0 -252 78 -334q68 -68 174 -67.5t315 104.5q-8 33 -14 169t-6 218v293q-133 47 -234 47q-182 0 -247.5 -102.5t-65.5 -327.5z" />
<glyph unicode="A" horiz-adv-x="1216" d="M51 0l410 1423h297l407 -1423h-125l-114 393h-635l-113 -393h-127zM322 506h573l-231 807h-111z" />
<glyph unicode="B" horiz-adv-x="1263" d="M178 0v1423h506q420 0 420 -358q0 -252 -189 -332q236 -74 236 -338q0 -215 -111.5 -305t-324.5 -90h-537zM305 113h408q150 0 229.5 63.5t79.5 222.5q0 271 -322 271h-395v-557zM305 780h393q143 0 210 69t67 204t-72.5 196.5t-222.5 61.5h-375v-531z" />
<glyph unicode="C" horiz-adv-x="1114" d="M127 707q0 463 147 612q121 125 369 125q170 0 385 -43l-6 -111q-213 39 -342 39t-199.5 -27.5t-114.5 -73.5t-67 -128q-41 -139 -41 -348t14.5 -312.5t55.5 -187.5t120.5 -121t221 -37t352.5 39l6 -110q-211 -43 -360.5 -43t-240.5 31.5t-148.5 89t-90.5 149.5 q-61 168 -61 457z" />
<glyph unicode="D" horiz-adv-x="1323" d="M178 0v1423h518q506 0 506 -692q0 -731 -506 -731h-518zM305 113h391q375 0 375 618q0 578 -375 578h-391v-1196z" />
<glyph unicode="E" horiz-adv-x="1130" d="M178 0v1423h854v-114h-727v-529h604v-112h-604v-555h727v-113h-854z" />
<glyph unicode="F" horiz-adv-x="1075" d="M178 0v1423h840v-114h-713v-588h606v-113h-606v-608h-127z" />
<glyph unicode="G" horiz-adv-x="1263" d="M123 707q0 182 24.5 311t85.5 229q117 197 433 197q193 0 391 -39l67 -14l-6 -109q-256 47 -442 47q-248 0 -335 -148.5t-87 -472t87 -469t333 -145.5q145 0 325 33v479h-262v113h387v-688q-59 -12 -208.5 -31.5t-247.5 -19.5q-307 0 -426 180t-119 547z" />
<glyph unicode="H" horiz-adv-x="1382" d="M178 0v1423h127v-653h772v653h125v-1423h-125v657h-772v-657h-127z" />
<glyph unicode="I" horiz-adv-x="483" d="M178 0v1423h127v-1423h-127z" />
<glyph unicode="J" horiz-adv-x="583" d="M37 -35q88 0 127 5t72.5 30t42 72t8.5 137v1214h125v-1241q0 -115 -19.5 -181.5t-72 -99t-111.5 -40.5t-172 -8v112z" />
<glyph unicode="K" horiz-adv-x="1153" d="M178 0v1423h127v-671l246 6l395 665h146l-430 -714l456 -709h-151l-414 643l-248 -4v-639h-127z" />
<glyph unicode="L" horiz-adv-x="983" d="M178 0v1423h127v-1308h651v-115h-778z" />
<glyph unicode="M" horiz-adv-x="1710" d="M178 0v1423h238l440 -1245l438 1245h238v-1423h-127v1292h-29l-446 -1245h-150l-446 1245h-29v-1292h-127z" />
<glyph unicode="N" horiz-adv-x="1376" d="M178 0v1423h250l596 -1310h47v1310h125v-1423h-246l-600 1309h-45v-1309h-127z" />
<glyph unicode="O" horiz-adv-x="1355" d="M123 703.5q0 375.5 121 558t434 182.5t435 -181.5t122 -562.5t-120 -550.5t-436.5 -169.5t-436 174t-119.5 549.5zM254 705q0 -326 86 -468.5t339 -142.5t339 139.5t86 466t-90 478t-336 151.5q-254 0 -342 -164q-47 -84 -64.5 -192.5t-17.5 -267.5z" />
<glyph unicode="P" horiz-adv-x="1214" d="M178 0v1423h520q227 0 335 -110.5t108 -339.5q-1 -477 -443 -477h-393v-496h-127zM305 608h393q311 0 312 365q0 174 -74 256t-238 82h-393v-703z" />
<glyph unicode="Q" horiz-adv-x="1355" d="M123 703.5q0 375.5 121 558t434 182.5t435 -181.5t122 -557.5q0 -268 -54.5 -426t-185.5 -232l174 -283l-120 -57l-179 295q-79 -22 -192 -22q-315 0 -435 174t-120 549.5zM254 705q0 -326 86 -468.5t339 -142.5t339 138.5t86 466t-90 479t-336 151.5q-254 0 -342 -164 q-47 -84 -64.5 -192.5t-17.5 -267.5z" />
<glyph unicode="R" horiz-adv-x="1259" d="M178 0v1423h522q223 0 333 -101t110 -321q0 -342 -275 -415l293 -586h-141l-281 561h-434v-561h-127zM305 674h395h2q310 0 310 325q0 160 -76 236t-236 76h-395v-637z" />
<glyph unicode="S" horiz-adv-x="1107" d="M104 1073q0 373 451 373q135 0 352 -29l68 -10l-10 -109q-283 35 -402 35q-330 0 -330 -252q0 -147 75 -198.5t293 -94.5t311.5 -118.5t93.5 -253.5q0 -229 -114 -330.5t-333 -101.5q-160 0 -371 28l-73 11l14 108q281 -35 434.5 -35t233.5 75t80 219.5t-71 196.5 t-225.5 80.5t-226 52t-134 67.5t-89.5 113t-27 173z" />
<glyph unicode="T" horiz-adv-x="1077" d="M27 1309v114h1024v-114h-447v-1309h-127v1309h-450z" />
<glyph unicode="U" horiz-adv-x="1314" d="M170 418v1005h125v-1005q0 -324 354 -324q184 0 276.5 76t92.5 248v1005h127v-1005q0 -231 -125 -334.5t-365.5 -103.5t-362.5 103t-122 335z" />
<glyph unicode="V" horiz-adv-x="1181" d="M53 1423h131l346 -1310h121l346 1310h129l-381 -1423h-309z" />
<glyph unicode="W" horiz-adv-x="1789" d="M68 1423h129l258 -1310h67l299 1294h150l297 -1294h67l258 1310h129l-292 -1423h-254l-281 1249l-281 -1249h-254z" />
<glyph unicode="X" horiz-adv-x="1136" d="M43 0l446 700l-446 723h143l385 -628l383 628h140l-443 -721l443 -702h-144l-381 614l-387 -614h-139z" />
<glyph unicode="Y" horiz-adv-x="1093" d="M27 1423h141l379 -690l377 690h143l-457 -821v-602h-127v602z" />
<glyph unicode="Z" horiz-adv-x="1099" d="M88 -2v168l780 1098v45h-780v114h922v-170l-781 -1097v-43h781v-115h-922z" />
<glyph unicode="[" horiz-adv-x="659" d="M166 -252v1786h409v-111h-284v-1564h284v-111h-409z" />
<glyph unicode="\" horiz-adv-x="862" d="M61 1395l111 49l627 -1415l-113 -47z" />
<glyph unicode="]" horiz-adv-x="659" d="M84 -141h285v1564h-285v111h410v-1786h-410v111z" />
<glyph unicode="^" d="M137 655l375 697h115l389 -697h-133l-314 574l-299 -574h-133z" />
<glyph unicode="_" horiz-adv-x="1300" d="M211 -197h876v-110h-876v110z" />
<glyph unicode="`" horiz-adv-x="466" d="M6 1403l45 106l424 -198l-39 -86z" />
<glyph unicode="a" horiz-adv-x="1021" d="M88 283.5q0 146.5 72.5 217t228.5 87.5l348 35v96q0 115 -50 165t-134 50q-131 0 -340 -25l-63 -6l-7 98q225 43 394.5 43t245 -79.5t75.5 -245.5v-549q8 -76 133 -90l-6 -98q-158 0 -231 81q-191 -83 -380 -83h-5q-137 0 -209 78.5t-72 225zM215 291q0 -207 170 -207 q74 0 162 17.5t139 35.5l51 19v370l-334 -34q-100 -8 -144 -57.5t-44 -143.5z" />
<glyph unicode="b" horiz-adv-x="1067" d="M152 0v1479h122v-510q160 75 320 75q205 0 284.5 -118.5t79.5 -410.5t-101 -413.5t-378 -121.5q-115 0 -274 16zM274 102q143 -12 230.5 -12t157 24.5t107.5 83t50 133.5t12 197q0 217 -52 311.5t-195 94.5q-70 0 -148 -17.5t-121 -35.5l-41 -17v-762z" />
<glyph unicode="c" horiz-adv-x="886" d="M111 516q0 295 97.5 411.5t326.5 116.5q92 0 219 -20l47 -6l-6 -105q-162 20 -240 21q-182 0 -249.5 -89t-67.5 -327.5t61 -333t256 -94.5l244 19l4 -105q-175 -24 -264 -24h-7q-244 0 -332.5 120.5t-88.5 415.5z" />
<glyph unicode="d" horiz-adv-x="1071" d="M207 911q98 133 332 133q90 0 258 -26v461h123v-1479h-123v76q-162 -96 -328 -96q-76 0 -131 17t-113 69q-117 104 -117 405q0 306 99 440zM236 500q0 -262 79 -342q39 -39 77 -53.5t98.5 -14.5t139.5 22.5t124 43.5l43 22v733q-164 25 -254 25q-174 0 -240.5 -106.5 t-66.5 -329.5z" />
<glyph unicode="e" horiz-adv-x="1032" d="M109 508q0 536 419 536h2q203 0 303.5 -115.5t100.5 -369.5l-4 -98h-697q0 -188 64.5 -279.5t221 -91.5t312.5 12l62 7l4 -101q-223 -28 -380 -28h-11q-221 2 -309 131t-88 397zM233 563h578q0 203 -66.5 289t-213 86t-222.5 -89t-76 -286z" />
<glyph unicode="f" horiz-adv-x="663" d="M61 915v109h134v104q0 217 59 294t211 77l199 -10v-105q-121 4 -181 5q-96 0 -131 -53.5t-35 -209.5v-102h310v-109h-310v-915h-122v915h-134z" />
<glyph unicode="g" horiz-adv-x="1042" d="M109 -170q0 86 36.5 138t128.5 120q-51 33 -51 139q0 33 49 129l17 31q-168 70 -168 309q0 348 371 348q104 0 184 -20l31 -6l297 6v-109l-205 5q74 -74 74 -241q0 -171 -94 -248q-93 -77 -294 -77q-59 0 -104 8q-41 -100 -41 -126q0 -68 40 -83.5t238.5 -16.5 t281.5 -59.5t83 -232.5t-111.5 -251.5t-347 -77.5t-325.5 67.5t-90 247.5zM231 -162q0 -123 61.5 -170t238 -47t252 50t75.5 168t-55 153t-211 35l-232 8q-76 -53 -102.5 -93.5t-26.5 -103.5zM246 697q0 -132 57 -186t193.5 -54t194 53t57.5 187t-57.5 189.5t-194 55.5 t-193.5 -56.5t-57 -188.5z" />
<glyph unicode="h" horiz-adv-x="1091" d="M154 0v1479h120v-514q170 79 328 79h4q205 0 273.5 -108.5t68.5 -396.5v-539h-123v532q0 236 -44 319t-191 83q-72 0 -151 -17.5t-122 -35.5l-43 -17v-864h-120z" />
<glyph unicode="i" horiz-adv-x="428" d="M154 0v1024h120v-1024h-120zM154 1280v154h120v-154h-120z" />
<glyph unicode="j" horiz-adv-x="428" d="M-109 -354q166 94 214.5 159t48.5 215v1004h122v-1006q0 -180 -66.5 -274t-268.5 -197zM154 1280v154h122v-154h-122z" />
<glyph unicode="k" horiz-adv-x="962" d="M154 0v1479h120v-881l175 4l315 422h141l-350 -469l367 -555h-144l-327 494l-177 -5v-489h-120z" />
<glyph unicode="l" horiz-adv-x="452" d="M166 0v1479h121v-1479h-121z" />
<glyph unicode="m" horiz-adv-x="1710" d="M154 0v1024h120v-76q156 96 332 96t250 -108q74 45 179.5 76.5t189.5 31.5q205 0 273.5 -107.5t68.5 -397.5v-539h-121v532q0 236 -44 319t-192 83q-74 0 -151.5 -21.5t-118.5 -44.5l-41 -20q31 -78 31 -316v-532h-123v528q0 240 -44 323t-190 83q-72 0 -146.5 -21.5 t-113.5 -44.5l-39 -20v-848h-120z" />
<glyph unicode="n" horiz-adv-x="1091" d="M154 0v1024h120v-76q172 96 334 96q205 0 273.5 -108.5t68.5 -396.5v-539h-123v532q0 236 -45 319t-192 83q-72 0 -151 -21.5t-122 -44.5l-43 -20v-848h-120z" />
<glyph unicode="o" horiz-adv-x="1079" d="M111 514q0 289 97 409.5t331.5 120.5t332 -120.5t97.5 -409.5t-89 -411.5t-339 -122.5t-340 122.5t-90 411.5zM238 517q0 -243 56 -336t245.5 -93t247 94t57.5 335t-64.5 330t-238.5 89t-238.5 -88t-64.5 -331z" />
<glyph unicode="p" horiz-adv-x="1071" d="M154 -461v1485h120v-78q160 98 337 98t264.5 -124.5t87.5 -406.5t-102.5 -407.5t-340.5 -125.5q-127 0 -246 26v-467h-120zM274 113q139 -25 242 -25q176 0 248 99.5t72 327.5t-62.5 323.5t-187.5 95.5q-68 0 -146 -22.5t-121 -47.5l-45 -22v-729z" />
<glyph unicode="q" horiz-adv-x="1067" d="M109 510q0 285 105 409.5t372 124.5l327 -20v-1485h-120v512q-146 -71 -306 -71q-205 0 -291.5 122.5t-86.5 407.5zM233 510q0 -223 59.5 -321.5t205.5 -98.5q70 0 143.5 16.5t112.5 32.5l39 19v766q-139 12 -205 12q-207 0 -281 -101.5t-74 -324.5z" />
<glyph unicode="r" horiz-adv-x="694" d="M154 0v1024h120v-147q76 53 185.5 102t202.5 65v-122q-88 -18 -184.5 -56.5t-149.5 -66.5l-54 -31v-768h-120z" />
<glyph unicode="s" horiz-adv-x="950" d="M96 759.5q0 147.5 104.5 215t258.5 67.5q123 0 307 -26l55 -8l-4 -109q-219 33 -354 33q-242 0 -242 -174q0 -80 53.5 -113t240.5 -64.5t264 -87t77 -212t-100.5 -229t-294.5 -72.5q-113 0 -291 28l-59 8l8 109q229 -35 352 -35t191.5 43t68.5 145.5t-56.5 136.5 t-241.5 62.5t-261 81.5t-76 200.5z" />
<glyph unicode="t" horiz-adv-x="710" d="M55 915v109h152v322h123v-322h342v-109h-342v-505q0 -199 28.5 -260.5t135.5 -61.5l188 14l8 -104q-135 -20 -207 -21q-156 0 -216 77t-60 294v567h-152z" />
<glyph unicode="u" horiz-adv-x="1075" d="M143 489v535h121v-532q0 -238 44 -320t192 -82q72 0 147.5 21.5t114.5 44.5l39 20v848h121v-1024h-121v76q-158 -96 -316 -96q-209 0 -275.5 106.5t-66.5 402.5z" />
<glyph unicode="v" horiz-adv-x="976" d="M55 1024h135l256 -918h82l267 918h127l-299 -1024h-269z" />
<glyph unicode="w" horiz-adv-x="1556" d="M68 1024h125l225 -918h28l267 898h129l266 -898h31l225 918h125l-256 -1024h-213l-242 844l-243 -844h-211z" />
<glyph unicode="x" horiz-adv-x="913" d="M49 0l330 512l-330 512h137l271 -422l270 422h137l-334 -510l332 -514h-135l-270 420l-271 -420h-137z" />
<glyph unicode="y" horiz-adv-x="978" d="M55 1024h125l273 -918h73l275 918h125l-443 -1485h-123l138 461h-142z" />
<glyph unicode="z" horiz-adv-x="931" d="M86 0v111l608 802h-608v111h760v-111l-608 -802h608v-111h-760z" />
<glyph unicode="{" horiz-adv-x="716" d="M53 586v102q117 27 167 82t50 150l-14 262q0 186 86 269t289 91l2 -106q-147 -8 -202.5 -70.5t-55.5 -189.5l14 -248q0 -131 -44 -191.5t-167 -97.5q123 -37 168 -99.5t45 -191.5l-14 -239q0 -127 54 -189.5t202 -71.5l-4 -108q-203 8 -288 92t-85 268l14 252 q0 90 -50 145.5t-167 88.5z" />
<glyph unicode="|" horiz-adv-x="452" d="M164 -461v1940h123v-1940h-123z" />
<glyph unicode="}" horiz-adv-x="716" d="M84 -152q147 8 201.5 71t54.5 190l-14 239q0 129 45 191.5t168 99.5q-123 37 -167 97.5t-44 191.5l14 248q0 127 -55.5 189t-202.5 71l2 106q203 -8 289 -91t86 -269l-15 -262q0 -94 50.5 -149.5t167.5 -82.5v-102q-117 -33 -167.5 -88.5t-50.5 -145.5l15 -252 q0 -184 -85 -268t-288 -92z" />
<glyph unicode="~" d="M139 551q129 111 236 111q59 0 211.5 -68t191.5 -68q70 0 176 74l37 25l21 -103q-124 -110 -230 -110q-61 0 -214.5 67.5t-190.5 67.5q-70 0 -180 -76l-35 -25z" />
<glyph unicode="&#xa1;" horiz-adv-x="448" d="M154 819v205h135v-205h-135zM158 -399l8 966h115l6 -966h-129z" />
<glyph unicode="&#xa2;" d="M213 502.5q0 230.5 87 334t273 111.5v252h109v-256q80 0 184 -18l35 -6l-4 -103q-164 18 -272 19q-156 0 -218.5 -75t-62.5 -255t61.5 -248t235.5 -68l258 15l6 -105q-135 -16 -221 -20v-250h-111v248q-193 8 -276.5 101t-83.5 323.5z" />
<glyph unicode="&#xa3;" d="M166 0v111h178v626h-137v109h137v108q0 248 65.5 332t231.5 84q96 0 219 -22l43 -9l-2 -102q-168 23 -264 23t-133 -62.5t-37 -251.5v-100h356v-109h-356v-626h330l161 32l21 -106l-166 -37h-647z" />
<glyph unicode="&#xa4;" d="M133 164l143 141q-66 94 -65.5 210t65.5 210l-143 143l88 88l141 -145q98 68 210 68t210 -68l144 145l88 -88l-146 -143q68 -98 68 -210t-68 -210l146 -141l-88 -88l-144 143q-94 -66 -209.5 -65.5t-210.5 65.5l-141 -143zM324 516q0 -102 73.5 -176t176 -74t176 74 t73.5 176t-73.5 176t-176 74t-176 -74t-73.5 -176z" />
<glyph unicode="&#xa5;" d="M55 1352h142l378 -584l373 584h144l-367 -586h303v-109h-369l-20 -41v-159h391v-109h-391v-348h-127v348h-393v109h393v159l-18 41h-377v109h309z" />
<glyph unicode="&#xa6;" horiz-adv-x="460" d="M168 311h123v-772h-123v772zM168 711v768h123v-768h-123z" />
<glyph unicode="&#xa7;" horiz-adv-x="1011" d="M115 543q0 82 44 157.5t70 96.5q-90 67 -90 229q0 313 381 313q102 0 277 -24l53 -6l-6 -105q-221 27 -338 27q-246 0 -246 -201q0 -113 63.5 -153.5t237.5 -71.5t251 -89.5t77 -201.5q0 -78 -31 -155.5t-53 -110.5q74 -57 74 -199q0 -336 -377 -336q-115 0 -293 25 l-59 8l10 104q225 -31 338 -30q262 0 262 223q0 102 -61.5 136t-240.5 63.5t-261 93t-82 207.5zM237.5 550q0.5 -89 58.5 -132t202.5 -66.5t212.5 -54.5q16 16 35.5 87t19.5 116q0 100 -57.5 139t-200 64.5t-195.5 48.5q-76 -113 -75.5 -202z" />
<glyph unicode="&#xa8;" horiz-adv-x="466" d="M-16 1284v164h120v-164h-120zM387 1284v164h119v-164h-119z" />
<glyph unicode="&#xa9;" horiz-adv-x="1323" d="M127 889.5q0 232.5 152.5 392.5t383 160t381 -161t150.5 -394.5t-150.5 -392t-381 -158.5t-383 160.5t-152.5 393zM209 888.5q0 -196.5 129 -334.5t322.5 -138t323.5 137t130 334.5t-130 336t-323.5 138.5t-322.5 -138.5t-129 -335zM432 888q0 163 51.5 241.5t184.5 78.5 q80 0 133 -12l20 -6l-4 -94q-82 14 -156.5 14t-100 -51t-25.5 -168t28.5 -170t106.5 -53l147 14l4 -92q-79 -21 -155 -21q-129 0 -181.5 78t-52.5 241z" />
<glyph unicode="&#xaa;" horiz-adv-x="774" d="M117 932q0 158 180 170l190 12v45q0 53 -24.5 74.5t-77.5 21.5l-227 -14l-4 82q141 27 240.5 27t149.5 -44.5t50 -150.5v-278q18 -27 65 -39l-4 -84q-98 0 -147 49q-119 -49 -211 -49t-136 48t-44 130zM225 931q0 -85 78 -85q70 0 156 26l28 11v149l-172 -10 q-90 -6 -90 -91z" />
<glyph unicode="&#xab;" horiz-adv-x="1071" d="M94 459v104l371 283v-129l-264 -203l264 -223v-131zM557 459v104l371 283v-129l-264 -203l264 -223v-131z" />
<glyph unicode="&#xac;" d="M137 580v112h873v-446h-117v334h-756z" />
<glyph unicode="&#xad;" horiz-adv-x="911" d="M145 510v115h623v-115h-623z" />
<glyph unicode="&#xae;" horiz-adv-x="1323" d="M127 889.5q0 232.5 151.5 392.5t382 160t382 -161t151.5 -394.5t-150.5 -392t-381 -158.5t-383 160.5t-152.5 393zM209 888.5q0 -196.5 129 -334.5t322.5 -138t323.5 137t130 334.5t-130 336t-323.5 138.5t-322.5 -138.5t-129 -335zM442 580v614h213q117 0 174.5 -43 t57.5 -147q0 -145 -111 -185l121 -239h-104l-117 227h-135v-227h-99zM541 891h137q59 0 86 25.5t27 85t-35 84t-107 24.5h-108v-219z" />
<glyph unicode="&#xaf;" horiz-adv-x="466" d="M-33 1292v101h557v-101h-557z" />
<glyph unicode="&#xb0;" d="M287 1157q0 127 79.5 207t206.5 80t206 -80t79 -207t-79 -205t-206 -78t-206.5 78t-79.5 205zM379 1157q0 -90 53 -143t142.5 -53t143.5 54t54 142t-54 143.5t-143.5 55.5t-142.5 -54.5t-53 -144.5z" />
<glyph unicode="&#xb1;" d="M117 86v115h913v-115h-913zM117 610v115h395v266h117v-266h401v-115h-401v-272h-117v272h-395z" />
<glyph unicode="&#xb2;" horiz-adv-x="573" d="M66 979v94l188 195q55 55 80.5 94t25.5 86q0 88 -106 88l-178 -18l-4 94q115 25 202 24q197 0 197 -180q0 -70 -28.5 -119t-98.5 -116l-141 -144h278v-98h-415z" />
<glyph unicode="&#xb3;" horiz-adv-x="573" d="M68 981l6 94q115 -16 217 -16t102 98q0 102 -104 103h-133v94h131q33 0 61.5 30.5t28.5 73.5q0 80 -105 80q-80 0 -161 -12l-29 -4l-6 94q115 20 213 20t148 -40t50 -128q0 -47 -20 -84q-29 -51 -66 -67q53 -16 78 -51t25 -111q0 -197 -211 -197q-76 0 -191 17z" />
<glyph unicode="&#xb4;" horiz-adv-x="548" d="M63 1311l424 198l45 -106l-430 -178z" />
<glyph unicode="&#xb5;" d="M182 -461v1485h121v-532q0 -238 44 -320t192 -82q72 0 147.5 21.5t114.5 44.5l39 20v848h121v-1024h-121v76q-158 -96 -309.5 -96t-227.5 51v-492h-121z" />
<glyph unicode="&#xb6;" horiz-adv-x="1210" d="M76 1051.5q0 162.5 108.5 267t272.5 104.5h673v-108h-167v-1315h-113v1315h-266v-1315h-113v684h-14q-164 0 -272.5 102.5t-108.5 265z" />
<glyph unicode="&#xb7;" horiz-adv-x="423" d="M145 500v207h136v-207h-136z" />
<glyph unicode="&#xb8;" horiz-adv-x="538" d="M92 -420l4 82q84 -6 146 -6q92 0 92 84q0 76 -92 76h-97v186h78v-108q119 0 171 -32t52 -122q0 -172 -182 -172z" />
<glyph unicode="&#xb9;" horiz-adv-x="573" d="M76 1477l207 141h102v-639h-109v518l-149 -102z" />
<glyph unicode="&#xba;" horiz-adv-x="757" d="M115 1052q0 298 264 298q131 0 195.5 -72t64.5 -223q0 -301 -260 -301q-264 0 -264 298zM229 1053.5q0 -105.5 35 -151.5t115 -46t113.5 46t33.5 151.5t-32.5 149.5t-113.5 44t-116 -44t-35 -149.5z" />
<glyph unicode="&#xbb;" horiz-adv-x="1071" d="M143 160v131l263 223l-263 203v129l371 -283v-104zM606 160v131l262 223l-262 203v129l371 -283v-104z" />
<glyph unicode="&#xbc;" horiz-adv-x="1087" d="M74 57l803 1293l73 -47l-803 -1291zM84 1477l207 141h102v-639h-108v518l-150 -102zM553 -6l156 440h118l-159 -434h176l8 180h100v-180h64v-100h-64v-105h-108v105h-291v94z" />
<glyph unicode="&#xbd;" horiz-adv-x="1075" d="M70 57l802 1293l74 -47l-803 -1291zM94 1477l207 141h102v-639h-108v518l-150 -102zM565 -111l189 195q55 55 80.5 94t25.5 86q0 88 -106 88l-179 -18l-4 94q115 25 203 25q197 0 197 -181q0 -70 -29 -119t-98 -116l-142 -143h279v-99h-416v94z" />
<glyph unicode="&#xbe;" horiz-adv-x="1120" d="M109 981l6 94q115 -16 217 -16t102 98q0 102 -104 103h-133v94h131q33 0 61.5 30.5t28.5 73.5q0 80 -105 80q-80 0 -161 -12l-29 -4l-6 94q115 20 213 20t148 -40t50 -128q0 -47 -20 -84q-29 -51 -66 -67q53 -16 78 -51t25 -111q0 -197 -211 -197q-76 0 -191 17zM111 57 l802 1293l74 -47l-803 -1291zM590 -6l155 440h119l-159 -434h176l8 180h100v-180h64v-100h-64v-105h-108v105h-291v94z" />
<glyph unicode="&#xbf;" horiz-adv-x="907" d="M82 -90q0 129 37 197.5t147.5 163t155.5 151.5t45 127v74h106q18 -51 18.5 -118t-49.5 -132.5t-158 -158.5t-142.5 -148.5t-34.5 -162t71.5 -157.5t225.5 -51q84 0 262 39l57 12l13 -104q-217 -59 -342 -60q-207 0 -309.5 77t-102.5 251zM455 819v205h135v-205h-135z" />
<glyph unicode="&#xc0;" horiz-adv-x="1216" d="M51 0l410 1423h297l407 -1423h-125l-114 393h-635l-113 -393h-127zM322 506h573l-231 807h-111zM344 1790l45 111l424 -203l-41 -88z" />
<glyph unicode="&#xc1;" horiz-adv-x="1216" d="M51 0l410 1423h297l407 -1423h-125l-114 393h-635l-113 -393h-127zM322 506h573l-231 807h-111zM393 1698l424 203l45 -111l-428 -180z" />
<glyph unicode="&#xc2;" horiz-adv-x="1216" d="M51 0l410 1423h297l407 -1423h-125l-114 393h-635l-113 -393h-127zM279 1634l274 269h106l275 -269h-141l-185 176l-186 -176h-143zM322 506h573l-231 807h-111z" />
<glyph unicode="&#xc3;" horiz-adv-x="1216" d="M51 0l410 1423h297l407 -1423h-125l-114 393h-635l-113 -393h-127zM266 1776q96 115 174 114q53 0 177 -56t149 -56q39 0 113 69l24 25l31 -92q-94 -113 -170 -113q-41 0 -167 58.5t-151 58.5q-47 0 -122 -76l-27 -27zM322 506h573l-231 807h-111z" />
<glyph unicode="&#xc4;" horiz-adv-x="1216" d="M51 0l410 1423h297l407 -1423h-125l-114 393h-635l-113 -393h-127zM322 506h573l-231 807h-111zM342 1677v164h121v-164h-121zM754 1677v164h118v-164h-118z" />
<glyph unicode="&#xc5;" horiz-adv-x="1216" d="M51 0l395 1378q-68 55 -67.5 153.5t63 154t163 55.5t162.5 -55.5t62 -150.5t-61 -151l397 -1384h-125l-114 393h-635l-113 -393h-127zM322 506h573l-231 807h-111zM475 1536q0 -96 90 -113h78q90 16 90 113q0 55 -33.5 85t-95 30t-95.5 -30t-34 -85z" />
<glyph unicode="&#xc6;" horiz-adv-x="1796" d="M45 0l479 1427h1172v-118h-727v-516h604v-119h-604v-555h727v-119h-852v389h-533l-135 -389h-131zM346 510h498v799h-228z" />
<glyph unicode="&#xc7;" horiz-adv-x="1114" d="M127 693q0 163 12.5 270.5t45 203t89.5 152.5q121 125 369 125q170 0 385 -43l-6 -111q-213 39 -342 39t-199.5 -27.5t-114.5 -73.5t-67 -128q-41 -139 -41 -348t14.5 -312.5t55.5 -187.5t120.5 -121t221 -37t352.5 39l6 -110q-188 -41 -366 -43v-86q119 0 171 -32 t52 -122q0 -172 -183 -172l-172 12l5 82q84 -6 145 -6q92 0 92 84q0 76 -92 76h-96v166q-272 16 -369 208q-49 98 -68.5 219t-19.5 284z" />
<glyph unicode="&#xc8;" horiz-adv-x="1130" d="M178 0v1423h854v-114h-727v-529h604v-112h-604v-555h727v-113h-854zM362 1790l46 111l423 -203l-40 -88z" />
<glyph unicode="&#xc9;" horiz-adv-x="1130" d="M178 0v1423h854v-114h-727v-529h604v-112h-604v-555h727v-113h-854zM373 1698l424 203l45 -111l-428 -180z" />
<glyph unicode="&#xca;" horiz-adv-x="1130" d="M178 0v1423h854v-114h-727v-529h604v-112h-604v-555h727v-113h-854zM270 1634l275 269h106l275 -269h-142l-184 176l-186 -176h-144z" />
<glyph unicode="&#xcb;" horiz-adv-x="1130" d="M178 0v1423h854v-114h-727v-529h604v-112h-604v-555h727v-113h-854zM338 1677v164h121v-164h-121zM750 1677v164h118v-164h-118z" />
<glyph unicode="&#xcc;" horiz-adv-x="483" d="M-39 1790l45 111l424 -203l-41 -88zM178 0v1423h127v-1423h-127z" />
<glyph unicode="&#xcd;" horiz-adv-x="483" d="M29 1698l424 203l45 -111l-428 -180zM178 0v1423h127v-1423h-127z" />
<glyph unicode="&#xce;" horiz-adv-x="483" d="M-96 1634l274 269h107l274 -269h-141l-185 176l-186 -176h-143zM178 0v1423h127v-1423h-127z" />
<glyph unicode="&#xcf;" horiz-adv-x="483" d="M-25 1677v164h121v-164h-121zM178 0v1423h127v-1423h-127zM387 1677v164h119v-164h-119z" />
<glyph unicode="&#xd0;" horiz-adv-x="1329" d="M39 655v119h145v653h516q508 0 508 -692q0 -735 -508 -735h-516v655h-145zM309 119h391q106 0 183.5 52t117.5 144q76 170 76 420q0 573 -377 574h-391v-535h338v-119h-338v-536z" />
<glyph unicode="&#xd1;" horiz-adv-x="1376" d="M178 0v1423h250l596 -1310h47v1310h125v-1423h-246l-600 1309h-45v-1309h-127zM350 1776q96 115 174 114q53 0 178 -56t148 -56q39 0 113 69l24 25l31 -92q-94 -113 -170 -113q-41 0 -167 58.5t-153 58.5q-45 0 -122 -76l-25 -27z" />
<glyph unicode="&#xd2;" horiz-adv-x="1355" d="M123 703.5q0 375.5 121 558t434 182.5t435 -181.5t122 -562.5t-120 -550.5t-436.5 -169.5t-436 174t-119.5 549.5zM254 705q0 -326 86 -468.5t339 -142.5t339 139.5t86 466t-90 478t-336 151.5q-254 0 -342 -164q-47 -84 -64.5 -192.5t-17.5 -267.5zM430 1790l45 111 l424 -203l-41 -88z" />
<glyph unicode="&#xd3;" horiz-adv-x="1355" d="M123 703.5q0 375.5 121 558t434 182.5t435 -181.5t122 -562.5t-120 -550.5t-436.5 -169.5t-436 174t-119.5 549.5zM254 705q0 -326 86 -468.5t339 -142.5t339 139.5t86 466t-90 478t-336 151.5q-254 0 -342 -164q-47 -84 -64.5 -192.5t-17.5 -267.5zM422 1698l424 203 l45 -111l-428 -180z" />
<glyph unicode="&#xd4;" horiz-adv-x="1355" d="M123 703.5q0 375.5 121 558t434 182.5t435 -181.5t122 -562.5t-120 -550.5t-436.5 -169.5t-436 174t-119.5 549.5zM254 705q0 -326 86 -468.5t339 -142.5t339 139.5t86 466t-90 478t-336 151.5q-254 0 -342 -164q-47 -84 -64.5 -192.5t-17.5 -267.5zM350 1634l275 269 h106l275 -269h-142l-184 176l-186 -176h-144z" />
<glyph unicode="&#xd5;" horiz-adv-x="1355" d="M123 703.5q0 375.5 121 558t434 182.5t435 -181.5t122 -562.5t-120 -550.5t-436.5 -169.5t-436 174t-119.5 549.5zM254 705q0 -326 86 -468.5t339 -142.5t339 139.5t86 466t-90 478t-336 151.5q-254 0 -342 -164q-47 -84 -64.5 -192.5t-17.5 -267.5zM338 1776 q96 115 174 114q53 0 178 -56t148 -56q39 0 112 69l25 25l31 -92q-94 -113 -170 -113q-41 0 -167 58.5t-153 58.5q-45 0 -123 -76l-24 -27z" />
<glyph unicode="&#xd6;" horiz-adv-x="1355" d="M123 703.5q0 375.5 121 558t434 182.5t435 -181.5t122 -562.5t-120 -550.5t-436.5 -169.5t-436 174t-119.5 549.5zM254 705q0 -326 86 -468.5t339 -142.5t339 139.5t86 466t-90 478t-336 151.5q-254 0 -342 -164q-47 -84 -64.5 -192.5t-17.5 -267.5zM414 1677v164h121 v-164h-121zM825 1677v164h119v-164h-119z" />
<glyph unicode="&#xd7;" d="M154 174l342 340l-342 338l79 82l340 -344l340 344l80 -80l-344 -340l344 -340l-80 -82l-340 344l-340 -342z" />
<glyph unicode="&#xd8;" horiz-adv-x="1355" d="M123 705q0 375 121 557t434 182q162 0 272 -49l111 235l96 -39l-119 -252q197 -158 197 -634q0 -385 -120 -555t-437 -170q-145 0 -256 38l-117 -251l-96 43l121 258q-113 82 -160 236.5t-47 400.5zM254 684q0 -180 27.5 -305t101.5 -195l516 1100q-90 45 -220 45 t-214 -40t-130 -124t-63.5 -192.5t-17.5 -288.5zM473 127q80 -33 205 -33q254 0 340 139.5t86 493.5t-121 492z" />
<glyph unicode="&#xd9;" horiz-adv-x="1314" d="M170 418v1005h125v-1005q0 -324 354 -324q184 0 276.5 76t92.5 248v1005h127v-1005q0 -231 -125 -334.5t-365.5 -103.5t-362.5 103t-122 335zM412 1790l45 111l424 -203l-41 -88z" />
<glyph unicode="&#xda;" horiz-adv-x="1314" d="M170 418v1005h125v-1005q0 -324 354 -324q184 0 276.5 76t92.5 248v1005h127v-1005q0 -231 -125 -334.5t-365.5 -103.5t-362.5 103t-122 335zM420 1698l424 203l45 -111l-428 -180z" />
<glyph unicode="&#xdb;" horiz-adv-x="1314" d="M170 418v1005h125v-1005q0 -324 354 -324q184 0 276.5 76t92.5 248v1005h127v-1005q0 -231 -125 -334.5t-365.5 -103.5t-362.5 103t-122 335zM328 1634l274 269h107l274 -269h-141l-185 176l-186 -176h-143z" />
<glyph unicode="&#xdc;" horiz-adv-x="1314" d="M170 418v1005h125v-1005q0 -324 354 -324q184 0 276.5 76t92.5 248v1005h127v-1005q0 -231 -125 -334.5t-365.5 -103.5t-362.5 103t-122 335zM391 1677v164h121v-164h-121zM803 1677v164h119v-164h-119z" />
<glyph unicode="&#xdd;" horiz-adv-x="1093" d="M27 1423h141l379 -690l377 690h143l-457 -821v-602h-127v602zM358 1698l424 203l45 -111l-428 -180z" />
<glyph unicode="&#xde;" horiz-adv-x="1228" d="M178 0v1427h127v-237h393q227 0 335 -108.5t108 -340t-110 -357.5t-333 -126h-393v-258h-127zM305 379h393q313 0 314 364q0 170 -75 249t-239 79h-393v-692z" />
<glyph unicode="&#xdf;" horiz-adv-x="1155" d="M154 0v1128q0 207 88 289t292.5 82t291.5 -67.5t87 -221.5q0 -106 -36.5 -166.5t-117.5 -96.5t-104.5 -55.5t-23.5 -50t33.5 -57t166 -93t189.5 -133t57 -189.5q0 -209 -93 -299t-316 -90q-96 0 -213 20l-43 6l6 107q168 -20 241 -21q162 0 225.5 62.5t63.5 176t-45 163 t-179 116t-177 110.5t-43 113.5t37 107.5t114.5 73t103 75.5t25.5 128t-54 128t-196.5 40.5t-201 -57t-58.5 -221v-1108h-120z" />
<glyph unicode="&#xe0;" horiz-adv-x="1021" d="M88 283.5q0 146.5 72.5 217t228.5 87.5l348 35v96q0 115 -50 165t-134 50q-131 0 -340 -25l-63 -6l-7 98q225 43 394.5 43t245 -79.5t75.5 -245.5v-549q8 -76 133 -90l-6 -98q-158 0 -231 81q-193 -84 -385 -83q-137 0 -209 78.5t-72 225zM215 291q0 -207 170 -207 q74 0 162 17.5t139 35.5l51 19v370l-334 -34q-100 -8 -144 -57.5t-44 -143.5zM256 1403l45 106l424 -198l-39 -86z" />
<glyph unicode="&#xe1;" horiz-adv-x="1021" d="M88 283.5q0 146.5 72.5 217t228.5 87.5l348 35v96q0 115 -50 165t-134 50q-131 0 -340 -25l-63 -6l-7 98q225 43 394.5 43t245 -79.5t75.5 -245.5v-549q8 -76 133 -90l-6 -98q-158 0 -231 81q-193 -84 -385 -83q-137 0 -209 78.5t-72 225zM215 291q0 -207 170 -207 q74 0 162 17.5t139 35.5l51 19v370l-334 -34q-100 -8 -144 -57.5t-44 -143.5zM252 1311l424 198l45 -106l-430 -178z" />
<glyph unicode="&#xe2;" horiz-adv-x="1021" d="M88 283.5q0 146.5 72.5 217t228.5 87.5l348 35v96q0 115 -50 165t-134 50q-131 0 -340 -25l-63 -6l-7 98q225 43 394.5 43t245 -79.5t75.5 -245.5v-549q8 -76 133 -90l-6 -98q-158 0 -231 81q-193 -84 -385 -83q-137 0 -209 78.5t-72 225zM201 1219l250 280h86l251 -280 h-129l-163 188l-166 -188h-129zM215 291q0 -207 170 -207q74 0 162 17.5t139 35.5l51 19v370l-334 -34q-100 -8 -144 -57.5t-44 -143.5z" />
<glyph unicode="&#xe3;" horiz-adv-x="1021" d="M88 283.5q0 146.5 72.5 217t228.5 87.5l348 35v96q0 115 -50 165t-134 50q-131 0 -340 -25l-63 -6l-7 98q225 43 394.5 43t245 -79.5t75.5 -245.5v-549q8 -76 133 -90l-6 -98q-158 0 -231 81q-193 -84 -385 -83q-137 0 -209 78.5t-72 225zM168 1366q102 102 180 102 q43 0 152.5 -49t134.5 -49q43 0 115 60l24 20l29 -86q-92 -96 -166 -96q-43 0 -151.5 50t-133.5 50q-49 0 -127 -61l-26 -23zM215 291q0 -207 170 -207q74 0 162 17.5t139 35.5l51 19v370l-334 -34q-100 -8 -144 -57.5t-44 -143.5z" />
<glyph unicode="&#xe4;" horiz-adv-x="1021" d="M88 283.5q0 146.5 72.5 217t228.5 87.5l348 35v96q0 115 -50 165t-134 50q-131 0 -340 -25l-63 -6l-7 98q225 43 394.5 43t245 -79.5t75.5 -245.5v-549q8 -76 133 -90l-6 -98q-158 0 -231 81q-193 -84 -385 -83q-137 0 -209 78.5t-72 225zM215 291q0 -207 170 -207 q74 0 162 17.5t139 35.5l51 19v370l-334 -34q-100 -8 -144 -57.5t-44 -143.5zM236 1284v164h120v-164h-120zM639 1284v164h119v-164h-119z" />
<glyph unicode="&#xe5;" horiz-adv-x="1021" d="M88 283.5q0 146.5 72.5 217t228.5 87.5l348 35v96q0 115 -50 165t-134 50q-131 0 -340 -25l-63 -6l-7 98q225 43 394.5 43t245 -79.5t75.5 -245.5v-549q8 -76 133 -90l-6 -98q-158 0 -231 81q-193 -84 -385 -83q-137 0 -209 78.5t-72 225zM215 291q0 -207 170 -207 q74 0 162 17.5t139 35.5l51 19v370l-334 -34q-100 -8 -144 -57.5t-44 -143.5zM311 1324q0 87 59.5 146.5t146.5 59.5t146.5 -59.5t59.5 -146.5t-59.5 -146.5t-146.5 -59.5t-146.5 59.5t-59.5 146.5zM399 1324q0 -50 34 -86t84 -36t84 36t34 86t-34 85t-84 35t-84 -35 t-34 -85z" />
<glyph unicode="&#xe6;" horiz-adv-x="1656" d="M88 289q0 164 83 224t290 83l276 27v92q0 211 -196 211q-135 0 -326 -17l-63 -4l-5 111q238 27 398 26q221 0 278 -165q100 166 334 165q203 0 303.5 -115.5t100.5 -367.5l-7 -98h-696q2 -188 66.5 -278.5t220.5 -90.5q100 0 313 14l60 5l4 -103q-229 -29 -389 -28 q-203 0 -299 114l-70 -31q-188 -84 -404 -83q-272 0 -272 309zM215 290q0 -97 42 -149.5t118 -52.5q182 0 405 86q-47 113 -47 346l-330 -31q-98 -10 -143 -56t-45 -143zM858 563h578q0 199 -66.5 285t-212.5 86q-299 0 -299 -371z" />
<glyph unicode="&#xe7;" horiz-adv-x="886" d="M111 533.5q0 277.5 97 394t327 116.5q92 0 219 -20l47 -6l-6 -105q-162 20 -240 21q-182 0 -249.5 -89t-67.5 -327.5t61 -333t256 -94.5l244 19l4 -105q-182 -25 -271 -24h-28v-86q119 0 171 -32t52 -122q0 -172 -182 -172l-172 12l4 82q84 -6 145 -6q92 0 92 84 q0 76 -92 76h-96v170q-180 23 -247.5 146.5t-67.5 401z" />
<glyph unicode="&#xe8;" horiz-adv-x="1032" d="M109 508q0 537 421 536q203 0 303.5 -115.5t100.5 -369.5l-4 -98h-697q0 -188 64.5 -279.5t221 -91.5t312.5 12l62 7l4 -101q-231 -29 -391 -28q-221 2 -309 131t-88 397zM233 563h578q0 203 -66.5 289t-213 86t-222.5 -89t-76 -286zM252 1405l45 106l424 -198l-39 -86z " />
<glyph unicode="&#xe9;" horiz-adv-x="1032" d="M109 508q0 537 421 536q203 0 303.5 -115.5t100.5 -369.5l-4 -98h-697q0 -188 64.5 -279.5t221 -91.5t312.5 12l62 7l4 -101q-231 -29 -391 -28q-221 2 -309 131t-88 397zM233 563h578q0 203 -66.5 289t-213 86t-222.5 -89t-76 -286zM315 1311l424 198l45 -106l-430 -178 z" />
<glyph unicode="&#xea;" horiz-adv-x="1032" d="M109 508q0 537 421 536q203 0 303.5 -115.5t100.5 -369.5l-4 -98h-697q0 -188 64.5 -279.5t221 -91.5t312.5 12l62 7l4 -101q-231 -29 -391 -28q-221 2 -309 131t-88 397zM233 563h578q0 203 -66.5 289t-213 86t-222.5 -89t-76 -286zM242 1219l250 280h86l251 -280h-129 l-163 188l-166 -188h-129z" />
<glyph unicode="&#xeb;" horiz-adv-x="1032" d="M109 508q0 537 421 536q203 0 303.5 -115.5t100.5 -369.5l-4 -98h-697q0 -188 64.5 -279.5t221 -91.5t312.5 12l62 7l4 -101q-231 -29 -391 -28q-221 2 -309 131t-88 397zM233 563h578q0 203 -66.5 289t-213 86t-222.5 -89t-76 -286zM262 1284v164h121v-164h-121z M666 1284v164h118v-164h-118z" />
<glyph unicode="&#xec;" horiz-adv-x="428" d="M-123 1403l45 106l424 -198l-39 -86zM154 0v1024h120v-1024h-120z" />
<glyph unicode="&#xed;" horiz-adv-x="428" d="M82 1311l424 198l45 -106l-430 -178zM154 0v1024h120v-1024h-120z" />
<glyph unicode="&#xee;" horiz-adv-x="428" d="M-82 1219l250 280h86l252 -280h-129l-164 188l-166 -188h-129zM154 0v1024h120v-1024h-120z" />
<glyph unicode="&#xef;" horiz-adv-x="428" d="M-55 1284v164h121v-164h-121zM154 0v1024h120v-1024h-120zM348 1284v164h119v-164h-119z" />
<glyph unicode="&#xf0;" horiz-adv-x="1112" d="M88 427q0 210 112.5 330t313.5 120q129 0 301 -62l55 -18q-14 289 -305 460l-246 -163l-59 80l205 137q-117 53 -262 92l28 96q195 -45 338 -117l209 140l60 -80l-170 -115q332 -207 331.5 -607.5t-107 -569t-353.5 -168.5q-213 0 -332 117.5t-119 327.5zM217 427 q0 -155 82 -244t251 -89t244.5 129t77.5 461q-205 80 -349 80t-225 -91t-81 -246z" />
<glyph unicode="&#xf1;" horiz-adv-x="1091" d="M154 0v1024h120v-76l48 23q47 25 131 49t155 24q205 0 273.5 -108.5t68.5 -396.5v-539h-123v532q0 236 -45 319t-198.5 83t-309.5 -86v-848h-120zM248 1366q102 102 180 102q43 0 152.5 -49t132.5 -49q45 0 116 60l25 20l29 -86q-92 -96 -166 -96q-43 0 -151.5 50 t-135.5 50q-47 0 -125 -61l-26 -23z" />
<glyph unicode="&#xf2;" horiz-adv-x="1079" d="M111 514q0 289 97 409.5t331.5 120.5t332 -120.5t97.5 -409.5t-89 -411.5t-339 -122.5t-340 122.5t-90 411.5zM238 517q0 -243 56 -336t245.5 -93t247 94t57.5 335t-64.5 330t-238.5 89t-238.5 -88t-64.5 -331zM299 1403l45 106l424 -198l-39 -86z" />
<glyph unicode="&#xf3;" horiz-adv-x="1079" d="M111 514q0 289 97 409.5t331.5 120.5t332 -120.5t97.5 -409.5t-89 -411.5t-339 -122.5t-340 122.5t-90 411.5zM238 517q0 -243 56 -336t245.5 -93t247 94t57.5 335t-64.5 330t-238.5 89t-238.5 -88t-64.5 -331zM334 1311l424 198l45 -106l-430 -178z" />
<glyph unicode="&#xf4;" horiz-adv-x="1079" d="M111 514q0 289 97 409.5t331.5 120.5t332 -120.5t97.5 -409.5t-89 -411.5t-339 -122.5t-340 122.5t-90 411.5zM238 517q0 -243 56 -336t245.5 -93t247 94t57.5 335t-64.5 330t-238.5 89t-238.5 -88t-64.5 -331zM244 1219l250 280h86l251 -280h-129l-163 188l-166 -188 h-129z" />
<glyph unicode="&#xf5;" horiz-adv-x="1079" d="M111 514q0 289 97 409.5t331.5 120.5t332 -120.5t97.5 -409.5t-89 -411.5t-339 -122.5t-340 122.5t-90 411.5zM221 1366q102 102 180 102q43 0 153 -49t134 -49q43 0 115 60l24 20l29 -86q-92 -96 -166 -96q-43 0 -151.5 50t-132.5 50q-49 0 -127 -61l-27 -23zM238 517 q0 -243 56 -336t245.5 -93t247 94t57.5 335t-64.5 330t-238.5 89t-238.5 -88t-64.5 -331z" />
<glyph unicode="&#xf6;" horiz-adv-x="1079" d="M111 514q0 289 97 409.5t331.5 120.5t332 -120.5t97.5 -409.5t-89 -411.5t-339 -122.5t-340 122.5t-90 411.5zM238 517q0 -243 56 -336t245.5 -93t247 94t57.5 335t-64.5 330t-238.5 89t-238.5 -88t-64.5 -331zM270 1284v164h121v-164h-121zM674 1284v164h119v-164h-119z " />
<glyph unicode="&#xf7;" d="M199 539v120h749v-120h-749zM426 686v184h295v-184h-295zM510 68v190h125v-190h-125z" />
<glyph unicode="&#xf8;" horiz-adv-x="1079" d="M111 526q0 276 97 397t333 121q92 0 159 -18l88 213l89 -31l-91 -215q182 -100 183 -467q0 -301 -89 -423.5t-339 -122.5q-90 0 -162 16l-92 -227l-86 30l90 228q-100 51 -140 169.5t-40 329.5zM238 558q0 -202 20.5 -293t81.5 -132l319 789q-44 14 -118 14 q-174 0 -238.5 -88t-64.5 -290zM420 100q49 -12 121 -12q188 0 245.5 94t57.5 359.5t-103 343.5z" />
<glyph unicode="&#xf9;" horiz-adv-x="1075" d="M143 489v535h121v-532q0 -238 44 -320t192 -82q72 0 147.5 21.5t114.5 44.5l39 20v848h121v-1024h-121v76q-158 -96 -316 -96q-209 0 -275.5 106.5t-66.5 402.5zM242 1403l45 106l424 -198l-39 -86z" />
<glyph unicode="&#xfa;" horiz-adv-x="1075" d="M143 489v535h121v-532q0 -238 44 -320t199 -82t294 86v848h121v-1024h-121v76l-43 -23q-45 -25 -124 -49t-149 -24q-209 0 -275.5 106.5t-66.5 402.5zM330 1311l424 198l45 -106l-430 -178z" />
<glyph unicode="&#xfb;" horiz-adv-x="1075" d="M143 489v535h121v-532q0 -238 44 -320t199 -82t294 86v848h121v-1024h-121v76l-43 -23q-45 -25 -124 -49t-149 -24q-209 0 -275.5 106.5t-66.5 402.5zM227 1219l250 280h86l252 -280h-129l-164 188l-166 -188h-129z" />
<glyph unicode="&#xfc;" horiz-adv-x="1075" d="M143 489v535h121v-532q0 -238 44 -320t199 -82t294 86v848h121v-1024h-121v76l-43 -23q-45 -25 -124 -49t-149 -24q-209 0 -275.5 106.5t-66.5 402.5zM283 1284v164h120v-164h-120zM686 1284v164h119v-164h-119z" />
<glyph unicode="&#xfd;" horiz-adv-x="978" d="M55 1024h125l273 -918h73l275 918h125l-443 -1485h-123l138 461h-142zM330 1311l424 198l45 -106l-430 -178z" />
<glyph unicode="&#xfe;" horiz-adv-x="1069" d="M154 -461v1940h120v-510q162 75 320 75q205 0 284.5 -117.5t79.5 -408.5t-99 -414.5t-365 -123.5l-220 14v-455h-120zM274 100q143 -12 211 -12q213 0 281 99.5t68 330t-52.5 323.5t-195.5 93q-70 0 -148 -17.5t-121 -35.5l-43 -17v-764z" />
<glyph unicode="&#xff;" horiz-adv-x="978" d="M55 1024h125l273 -918h73l275 918h125l-443 -1485h-123l138 461h-142zM225 1284v164h121v-164h-121zM629 1284v164h119v-164h-119z" />
<glyph unicode="&#x152;" horiz-adv-x="1904" d="M123 708q0 382 118.5 561t426.5 179q174 0 301 -21h837v-122h-712v-512h589v-123h-589v-547h712v-125h-835q-188 -18 -303 -18q-313 0 -429 173t-116 555zM254 709q0 -164 16.5 -269.5t62.5 -185.5t130 -116t199.5 -36t306.5 17v1186q-262 23 -291 22q-248 0 -336 -144.5 t-88 -473.5z" />
<glyph unicode="&#x153;" horiz-adv-x="1767" d="M111 515q0 288 99 407.5t333 119.5q143 0 232 -53t134 -172q92 225 357 225q203 0 303 -115.5t100 -367.5l-4 -98h-696q0 -188 64 -278.5t220 -90.5q102 0 316 14l59 5l4 -103q-231 -29 -391 -28q-252 0 -338 198q-41 -104 -126 -151t-234 -47q-250 0 -341 123.5 t-91 411.5zM238 519.5q0 -238.5 58 -334t245.5 -95.5t245 98.5t57.5 326.5t-72 322.5t-237.5 94.5t-231 -87t-65.5 -325.5zM969 563h577q0 201 -66.5 286t-213.5 85q-297 0 -297 -371z" />
<glyph unicode="&#x178;" horiz-adv-x="1093" d="M27 1423h141l379 -690l377 690h143l-457 -821v-602h-127v602zM279 1677v164h120v-164h-120zM690 1677v164h119v-164h-119z" />
<glyph unicode="&#x2c6;" horiz-adv-x="466" d="M-35 1219l250 280h86l252 -280h-129l-164 188l-166 -188h-129z" />
<glyph unicode="&#x2dc;" horiz-adv-x="466" d="M-66 1366q102 102 181 102q43 0 152.5 -49t133.5 -49q43 0 115 60l25 20l28 -86q-92 -96 -166 -96q-43 0 -151.5 50t-132.5 50q-49 0 -127 -61l-27 -23z" />
<glyph unicode="&#x2000;" horiz-adv-x="951" />
<glyph unicode="&#x2001;" horiz-adv-x="1903" />
<glyph unicode="&#x2002;" horiz-adv-x="951" />
<glyph unicode="&#x2003;" horiz-adv-x="1903" />
<glyph unicode="&#x2004;" horiz-adv-x="634" />
<glyph unicode="&#x2005;" horiz-adv-x="475" />
<glyph unicode="&#x2006;" horiz-adv-x="317" />
<glyph unicode="&#x2007;" horiz-adv-x="317" />
<glyph unicode="&#x2008;" horiz-adv-x="237" />
<glyph unicode="&#x2009;" horiz-adv-x="380" />
<glyph unicode="&#x200a;" horiz-adv-x="105" />
<glyph unicode="&#x2010;" horiz-adv-x="911" d="M145 510v115h623v-115h-623z" />
<glyph unicode="&#x2011;" horiz-adv-x="911" d="M145 510v115h623v-115h-623z" />
<glyph unicode="&#x2012;" horiz-adv-x="911" d="M145 510v115h623v-115h-623z" />
<glyph unicode="&#x2013;" horiz-adv-x="1302" d="M139 494v110h1024v-110h-1024z" />
<glyph unicode="&#x2014;" horiz-adv-x="2326" d="M139 494v110h2048v-110h-2048z" />
<glyph unicode="&#x2018;" horiz-adv-x="428" d="M113 1032l118 432h99l-86 -432h-131z" />
<glyph unicode="&#x2019;" horiz-adv-x="423" d="M117 1030l86 432h131l-119 -432h-98z" />
<glyph unicode="&#x201a;" horiz-adv-x="425" d="M106 -100l60 215h49l-43 -215h-66z" />
<glyph unicode="&#x201c;" horiz-adv-x="727" d="M113 1032l118 432h99l-86 -432h-131zM412 1032l118 432h99l-86 -432h-131z" />
<glyph unicode="&#x201d;" horiz-adv-x="739" d="M117 1032l86 432h131l-119 -432h-98zM432 1032l86 432h131l-119 -432h-98z" />
<glyph unicode="&#x201e;" horiz-adv-x="702" d="M59 -205l119 432h98l-86 -432h-131zM352 -205l119 432h98l-86 -432h-131z" />
<glyph unicode="&#x2022;" horiz-adv-x="978" d="M233 219v590h512v-590h-512z" />
<glyph unicode="&#x2026;" horiz-adv-x="1464" d="M143 0v207h136v-207h-136zM664 0v207h135v-207h-135zM1186 0v207h135v-207h-135z" />
<glyph unicode="&#x202f;" horiz-adv-x="380" />
<glyph unicode="&#x2039;" horiz-adv-x="608" d="M94 459v104l371 283v-129l-264 -203l264 -223v-131z" />
<glyph unicode="&#x203a;" horiz-adv-x="608" d="M143 164v133l263 223l-263 201v129l371 -283v-104z" />
<glyph unicode="&#x205f;" horiz-adv-x="475" />
<glyph unicode="&#x20ac;" d="M61 471v104h129q-2 31 -2 102t2 107h-129v105h136q23 246 131 364.5t352 118.5q168 0 364 -41l-6 -104q-188 37 -361 37t-254 -91.5t-101 -283.5h612v-105h-619q-2 -37 -2 -107.5t2 -101.5h619v-104h-615q18 -199 100.5 -290t256.5 -91t362 37l6 -107q-209 -41 -364 -40 q-244 0 -352.5 120.5t-130.5 370.5h-136z" />
<glyph unicode="&#x2122;" horiz-adv-x="1396" d="M193 1196v88h409v-88h-147v-516h-97v516h-165zM670 678v606h129l149 -453l158 453h129v-606h-92v485l-152 -458h-82l-149 458v-485h-90z" />
<glyph unicode="&#xe000;" horiz-adv-x="1024" d="M0 0v1024h1024v-1024h-1024z" />
</font>
</defs>
</svg>
